<?xml version="1.0" standalone="no"?>
<!DOCTYPE svg PUBLIC "-//W3C//DTD SVG 1.1//EN" "http://www.w3.org/Graphics/SVG/1.1/DTD/svg11.dtd" >
<svg xmlns="http://www.w3.org/2000/svg">
  <metadata>Created by iconfont</metadata>
  <defs>
  <font id="iconfont" horiz-adv-x="1024">
    <font-face
      font-family="iconfont"
      font-weight="400"
      font-stretch="normal"
      units-per-em="1024"
      ascent="896"
      descent="-128"
    />
      <missing-glyph />
      
      <glyph glyph-name="yunyingjiankong" unicode="&#60034;" d="M4.872 891.131v-760.697h1014.255V891.131H4.872z m843.096-437.404h-82.412l-82.399-107.769c-31.692-38.028-88.741-38.028-114.111 6.343L442.269 574.174 385.22 466.405c-12.678-19.014-25.363-25.357-44.377-25.357H239.41c-25.35 0-44.384 19.028-44.384 44.377s19.034 44.371 44.384 44.371h76.063l69.747 133.125c25.35 50.713 88.748 50.713 114.098 6.343l133.125-234.552 69.734 88.748c6.329 12.678 25.35 19.021 38.028 19.021h107.762c25.37 0 44.384-25.363 44.384-44.377 0.001-25.356-19.013-44.377-44.383-44.377z m-19.014-450.082H195.026c-38.028 0-63.378-25.35-63.378-63.378 0-38.048 25.35-63.398 63.378-63.398h633.927c38.035 0 63.398 25.35 63.398 63.398 0.001 38.028-25.363 63.378-63.397 63.378z"  horiz-adv-x="1024" />
      
      <glyph glyph-name="kefufill" unicode="&#59200;" d="M608.929951 224.284898c-34.230808 0-60.892995 2.580212-68.461616 3.440282-17.545439 2.064169-30.274483 17.717453-28.210314 35.262893 1.892155 17.545439 17.545439 30.102469 35.262893 28.210314 79.642533-8.77272 201.772552-1.204099 223.102301 43.175542 7.568621 15.825298 26.662187 22.705863 42.659499 14.965228 15.997312-7.568621 22.705863-26.834201 14.965228-42.659499C794.361162 236.669914 683.412061 224.284898 608.929951 224.284898zM896.021502 256.107509c-17.717453 0-31.994625 14.277171-31.994625 31.994625l0 110.261045-42.831514 15.309256c-12.729044 4.472367-21.32975 16.685369-21.32975 30.102469 0 158.769024-129.182597 287.951621-287.951621 287.951621-158.769024 0-287.951621-129.182597-287.951621-287.951621 0-10.320847-4.988409-19.953637-13.417101-25.974131l-18.577524-13.245087 0-116.281539c0-17.717453-14.277171-31.994625-31.994625-31.994625s-31.994625 14.277171-31.994625 31.994625l0 132.794893c0 10.320847 4.988409 19.953637 13.417101 25.974131l18.921552 13.589115c8.77272 186.291282 163.069377 335.255501 351.596842 335.255501C698.377289 795.715774 851.469847 650.019822 863.338821 466.480766l43.51957-15.48127c12.729044-4.472367 21.32975-16.685369 21.32975-30.102469l0-132.794893C928.016126 270.38468 913.738955 256.107509 896.021502 256.107509zM639.892491 112.303712 639.892491 121.936503c28.0383 21.845792 50.400134 43.003528 63.645221 72.761969-29.070385-4.644381-61.581052-2.92424-87.727196-2.92424-31.994625 0-59.344868-0.860071-76.030237 1.032085-35.090879 3.956325-60.376953 38.703175-56.592642 73.794053 3.956325 35.090879 35.778935 60.720981 70.697799 56.592642 71.213842-7.568621 149.82429 0.688056 181.302873 13.933143 1.376113 29.242399 1.032085 60.032925 1.032085 83.426844 0 136.923232-83.254829 218.113892-216.737779 221.038132-0.688056 0-18.749538 0-19.437594 0-133.48295-2.752226-213.469511-84.974971-213.469511-222.070217 0-84.630942 1.376113-222.758273 97.359987-297.756425l0-9.63279c-127.978498-19.953637-226.026541-72.589955-226.026541-142.083655 0-17.717453 14.793214-34.230808 32.510667-34.230808l628.023518 0c17.717453 0 39.907274 16.513355 39.907274 34.230808C858.522426 39.713758 768.043004 92.178061 639.892491 112.303712z"  horiz-adv-x="1024" />
      
      <glyph glyph-name="warn3" unicode="&#58885;" d="M907.298133 402.722133a43.8784 43.8784 0 1 0-84.002133 25.429334c7.287467 24.098133 7.287467 54.2208-0.546133 89.4976C782.1312 678.690133 636.586667 793.6 468.104533 793.6 266.154667 793.6 102.4 629.8624 102.4 427.8784a365.858133 365.858133 0 0 1 245.640533-345.5488 43.8784 43.8784 0 1 0-28.791466-82.909867C138.3424 62.2592 14.626133 233.284267 14.626133 427.861333 14.626133 678.331733 217.668267 881.373867 468.138667 881.373867 677.034667 881.373867 857.429333 738.9184 908.117333 537.924267c11.195733-50.2784 11.195733-95.4368-0.836266-135.202134zM485.205333-25.6h433.92L702.173867 384.2048 485.205333-25.6z m522.8544 19.592533a73.147733 73.147733 0 0 0-64.631466-107.349333H460.919467a73.147733 73.147733 0 0 0-64.648534 107.349333L637.525333 449.706667a73.147733 73.147733 0 0 0 129.28 0l241.2544-455.68z m-305.885866 302.250667a43.8784 43.8784 0 0 0 43.8784-43.895467v-87.773866a43.8784 43.8784 0 0 0-87.773867 0v87.773866a43.8784 43.8784 0 0 0 43.895467 43.8784zM438.852267 661.930667a43.8784 43.8784 0 0 0 87.773866 0v-263.3216a43.8784 43.8784 0 0 0-43.8784-43.8784H292.573867a43.8784 43.8784 0 0 0 0 87.773866h146.2784V661.947733z m263.3216-658.295467a43.8784 43.8784 0 1 0 0 87.773867 43.8784 43.8784 0 0 0 0-87.773867z"  horiz-adv-x="1024" />
      
      <glyph glyph-name="caidan" unicode="&#58940;" d="M0.837818 820.781683c0-19.642164 8.098902-39.191237 21.969435-53.06177 13.963624-13.963624 33.512697-22.062525 53.247951-22.062525a76.055204 76.055204 0 0 1 53.06177 21.969434c13.963624 13.963624 22.062525 33.512697 22.062526 53.154861A76.055204 76.055204 0 0 1 129.303156 874.029635 76.055204 76.055204 0 0 1 76.055204 895.999069a76.055204 76.055204 0 0 1-53.247951-21.969434A76.706839 76.706839 0 0 1 0.837818 820.781683M0.837818 419.839502c0-19.642164 8.005811-39.377419 21.969435-53.247952 13.963624-13.963624 33.419606-21.969435 53.247951-21.969434a76.241385 76.241385 0 0 1 53.154861 21.969434 75.962113 75.962113 0 0 1 21.969435 53.247952 76.241385 76.241385 0 0 1-21.969435 53.154861 75.962113 75.962113 0 0 1-53.154861 21.969434 76.241385 76.241385 0 0 1-53.247951-21.969434 75.962113 75.962113 0 0 1-21.969435-53.154861M0.837818 18.80423c0-19.642164 8.005811-39.284328 21.969435-53.247951 13.963624-13.963624 33.419606-21.969435 53.247951-21.969435a76.241385 76.241385 0 0 1 53.154861 21.969435 75.962113 75.962113 0 0 1 21.969435 53.247951 76.241385 76.241385 0 0 1-21.969435 53.247952 75.962113 75.962113 0 0 1-53.154861 21.969434 76.241385 76.241385 0 0 1-53.247951-21.969434 76.520658 76.520658 0 0 1-21.969435-53.247952M1304.109361 820.781683c0-41.518508-32.395607-75.124295-72.331571-75.124295H373.945843c-40.029055 0-72.331571 33.512697-72.331571 75.124295C301.521181 862.486372 333.916788 895.999069 373.945843 895.999069h857.831947c40.029055 0 72.331571-33.605788 72.331571-75.217386M1231.77779 344.622116H373.945843c-40.029055 0-72.331571 33.605788-72.331571 75.217386 0 41.518508 32.302516 75.124295 72.331571 75.124295h857.831947c40.029055 0.186182 72.331571-33.512697 72.331571-75.124295 0-41.425417-32.395607-75.217386-72.331571-75.217386zM1304.109361 18.897321c0-41.611599-32.395607-75.310477-72.331571-75.310477H373.945843c-40.029055 0-72.331571 33.698878-72.331571 75.310477 0 41.425417 32.302516 75.124295 72.331571 75.124295h857.831947c40.029055 0.093091 72.331571-33.698878 72.331571-75.124295"  horiz-adv-x="1305" />
      
      <glyph glyph-name="yeji" unicode="&#58905;" d="M606.488 386.577c0 6.089-4.937 11.025-11.025 11.025H452.167c-6.083 0-11.025-4.936-11.025-11.025v-352.732c0-6.089 4.942-11.026 11.025-11.026h143.297c6.088 0 11.025 4.937 11.025 11.026V386.577z m281.605 162.59L778.57 740.199c-5.248 9.091-13.845 9.776-19.094 0.681L649.977 548.818c-5.249-9.085-0.951-18.94 9.542-18.94h35.154v-490.523c0-6.065 7.674-16.536 13.734-16.536h121.256c6.06 0 8.311 10.471 8.311 16.536V529.877h40.575c10.494 0 14.792 10.2 9.544 19.29z m-708.351-10.349c0 43.475 35.242 78.713 78.718 78.713s78.713-35.237 78.713-78.713c0-43.474-35.237-78.718-78.713-78.718s-78.718 35.244-78.718 78.718z m81.188-482.929c0-22.044-13.7-35.848-34.572-33.863-18.185 1.716-27.723 18.992-27.723 37.266v182.17c0-14.969-17.92-26.962-33.08-26.962-16.745 0-33.056 14.185-33.056 28.403V372.657c0 33.807 24.656 58.015 58.467 58.015h26.964l44.09-77.16 44.091 77.16h26.333c33.811 0 64.607-24.208 64.607-58.024v-129.753c0-14.218-16.311-28.404-33.057-28.404-15.16 0-33.079 11.99-33.079 26.959v-182.166c0-18.273-12.601-35.536-30.8-37.27-20.865-1.973-37.634 11.831-37.634 33.876h-1.551z m0 0"  horiz-adv-x="1024" />
      
      <glyph glyph-name="pedigree" unicode="&#58894;" d="M343.04 286.72h343.04c5.12 0 10.24-5.12 10.24-10.24v-35.84c0-5.12-5.12-10.24-10.24-10.24H343.04c-5.12 0-10.24 5.12-10.24 10.24V281.6c0 5.12 5.12 5.12 10.24 5.12zM537.6 445.44v-189.44c0-5.12-5.12-10.24-10.24-10.24h-30.72c-5.12 0-10.24 5.12-10.24 10.24V445.44c0 5.12 5.12 10.24 10.24 10.24h35.84c0-5.12 5.12-5.12 5.12-10.24zM261.12 317.44000000000005c25.6 0 51.2-25.6 51.2-51.2 0-15.36-5.12-25.6-15.36-35.84s-20.48-15.36-35.84-15.36c-15.36 0-25.6 5.12-35.84 15.36-10.24 10.24-15.36 25.6-15.36 35.84 0 25.6 20.48 46.08 51.2 51.2m0 51.2c-56.32 0-102.4-46.08-102.4-102.4 0-25.6 10.24-51.2 30.72-71.68s46.08-30.72 71.68-30.72c25.6 0 51.2 10.24 71.68 30.72 20.48 20.48 30.72 46.08 30.72 71.68 0 51.2-46.08 97.28-102.4 102.4z m25.6-266.24c15.36 0 25.6-5.12 35.84-10.24 20.48-10.24 35.84-35.84 35.84-56.32-25.6 0-51.2-5.12-76.8-5.12h-51.2c-25.6 0-51.2 0-76.8 5.12 0 25.6 15.36 46.08 35.84 61.44 10.24 5.12 25.6 10.24 40.96 10.24l56.32-5.12m0 51.2H230.4c-25.6 0-46.08-5.12-66.56-20.48-40.96-20.48-61.44-61.44-61.44-107.52v-10.24c0-35.84 56.32-40.96 128-40.96h61.44c71.68 0 128 0 128 40.96V25.600000000000023c0 46.08-20.48 87.04-61.44 107.52-20.48 15.36-46.08 20.48-71.68 20.48z m476.16 163.84c25.6 0 51.2-25.6 51.2-51.2 0-15.36-5.12-25.6-15.36-35.84s-20.48-15.36-35.84-15.36c-15.36 0-25.6 5.12-35.84 15.36-10.24 10.24-15.36 25.6-15.36 35.84 0 25.6 25.6 46.08 51.2 51.2m0 51.2c-56.32 0-102.4-46.08-102.4-102.4 0-25.6 10.24-51.2 30.72-71.68 20.48-20.48 46.08-30.72 71.68-30.72 25.6 0 51.2 10.24 71.68 30.72s30.72 46.08 30.72 71.68c0 51.2-46.08 97.28-102.4 102.4z m30.72-266.24c15.36 0 25.6-5.12 35.84-10.24 20.48-10.24 35.84-35.84 35.84-56.32-25.6 0-51.2-5.12-76.8-5.12h-61.44c-25.6 0-51.2 0-76.8 5.12 0 25.6 15.36 46.08 35.84 61.44 10.24 5.12 25.6 10.24 40.96 10.24h66.56m0 46.08h-61.44c-25.6 0-46.08-5.12-66.56-20.48-35.84-25.6-56.32-66.56-56.32-107.52v-10.24c0-35.84 56.32-40.96 128-40.96h61.44c71.68 0 128 0 128 40.96V25.600000000000023c0 46.08-20.48 87.04-61.44 107.52-25.6 15.36-46.08 20.48-71.68 20.48zM512 742.4c25.6 0 51.2-25.6 51.2-51.2 0-15.36-5.12-25.6-15.36-35.84-10.24-10.24-20.48-15.36-35.84-15.36-15.36 0-25.6 5.12-35.84 15.36-10.24 10.24-15.36 20.48-15.36 35.84 0 25.6 25.6 51.2 51.2 51.2m0 51.2c-56.32 0-102.4-46.08-102.4-102.4 0-25.6 10.24-51.2 30.72-71.68 20.48-20.48 46.08-30.72 71.68-30.72 25.6 0 51.2 10.24 71.68 30.72s30.72 46.08 30.72 71.68c0 56.32-46.08 102.4-102.4 102.4z m30.72-261.12c15.36 0 25.6-5.12 35.84-10.24 25.6-15.36 35.84-35.84 40.96-61.44-25.6 0-51.2-5.12-76.8-5.12H481.28c-25.6 0-51.2 0-76.8 5.12 5.12 25.6 15.36 46.08 35.84 61.44 10.24 5.12 25.6 10.24 40.96 10.24h61.44m0 51.2H481.28c-25.6 0-46.08-5.12-66.56-20.48-35.84-25.6-61.44-66.56-61.44-107.52v-10.24c0-35.84 56.32-40.96 128-40.96h61.44c71.68 0 128 0 128 40.96v10.24c0 46.08-20.48 87.04-61.44 107.52-20.48 10.24-46.08 20.48-66.56 20.48z"  horiz-adv-x="1024" />
      
      <glyph glyph-name="yaoqinglianjie" unicode="&#59292;" d="M559.808 169.664l-179.2 97.728a170.688 170.688 0 1 0 0 233.152l179.2 97.728a170.688 170.688 0 1 0 40.96-74.88l-179.2-97.728c6.848-27.328 6.848-56 0-83.328l179.136-97.728a170.688 170.688 0 1 0-40.96-74.88zM256 298.688a85.312 85.312 0 1 1 0 170.624 85.312 85.312 0 0 1 0-170.624z m469.312 256a85.312 85.312 0 1 1 0 170.624 85.312 85.312 0 0 1 0-170.624z m0-512a85.312 85.312 0 1 1 0 170.624 85.312 85.312 0 0 1 0-170.624z"  horiz-adv-x="1024" />
      
      <glyph glyph-name="a-chuku3" unicode="&#60364;" d="M905.045333 347.989333c-14.506667 0-28.16 9.386667-32.597333 24.064L748.373333 774.314667c-2.730667 8.704-20.138667 20.650667-45.909333 20.650666H321.706667c-25.941333 0-43.349333-12.117333-46.08-20.650666L151.722667 372.053333a33.979733 33.979733 0 0 0-42.666667-22.528 33.911467 33.911467 0 0 0-22.528 42.666667l123.733333 402.261333c12.458667 40.618667 58.197333 68.949333 111.274667 68.949334h380.928c52.906667 0 98.645333-28.330667 111.104-68.949334l124.074667-402.261333a34.133333 34.133333 0 0 0-32.597334-44.202667zM865.962667-93.013333H158.037333C108.373333-93.013333 68.266667-52.906667 68.266667-3.242667V344.576c0 24.746667 20.138667 44.885333 44.885333 44.885333L512 165.205333l398.848 224.256c24.746667 0 44.885333-20.138667 44.885333-44.885333V-3.413333c0-49.493333-40.106667-89.6-89.770666-89.6zM562.346667 382.464h-102.4c-9.386667 0-17.066667 7.68-17.066667 17.066667V619.52c0 9.386667 7.68 17.066667 17.066667 17.066667h102.4c9.386667 0 17.066667-7.68 17.066666-17.066667v-220.16c0-9.216-7.509333-16.896-17.066666-16.896zM562.346667 263.850667h-102.4c-9.386667 0-17.066667 7.68-17.066667 17.066666v58.88c0 9.386667 7.68 17.066667 17.066667 17.066667h102.4c9.386667 0 17.066667-7.68 17.066666-17.066667v-58.88c0-9.386667-7.509333-17.066667-17.066666-17.066666zM381.098667 626.005333l117.248 117.248c7.509333 7.509333 19.797333 7.509333 27.306666 0l117.248-117.248c12.117333-12.117333 3.584-32.938667-13.653333-32.938666H394.752c-17.066667 0-25.770667 20.650667-13.653333 32.938666z"  horiz-adv-x="1024" />
      
      <glyph glyph-name="licai" unicode="&#58884;" d="M976.896 12.288q0-19.456-6.656-36.352t-18.944-29.696-28.672-19.968-35.84-7.168l-743.424 0q-19.456 0-36.864 7.168t-30.72 19.968-20.992 29.696-7.68 36.352l0 510.976q0 38.912 27.136 66.048t66.048 27.136l743.424 0q38.912 0 66.048-27.136t27.136-66.048l0-139.264-232.448 0q-38.912 0-66.048-26.624t-27.136-65.536q1.024-26.624 11.264-47.104 8.192-17.408 27.136-31.744t54.784-14.336l232.448 0 0-186.368zM837.632 663.552l-464.896 0q55.296 28.672 104.448 55.296 43.008 22.528 84.992 45.056t65.536 34.816q35.84 19.456 64 17.92t47.616-9.728q22.528-11.264 38.912-29.696zM698.368 291.84q0 19.456 13.312 32.768t32.768 13.312 32.768-13.312 13.312-32.768-13.312-33.28-32.768-13.824-32.768 13.824-13.312 33.28z"  horiz-adv-x="1024" />
      
      <glyph glyph-name="jinbitixian" unicode="&#58882;" d="M55.296 322.56q-23.552 0-40.448 17.408t-16.896 40.96l0 77.824q0 23.552 16.896 40.448t40.448 16.896l751.616 0q-15.36-4.096-29.696-10.752t-25.6-20.992q-32.768-36.864-65.536-79.36t-62.464-82.432l-568.32 0zM183.296 581.632q-23.552 0-40.448 17.408t-16.896 40.96l0 71.68q0 23.552 16.896 40.448t40.448 16.896l779.264 0q23.552 0 40.96-16.896t17.408-40.448l0-71.68q0-23.552-17.408-40.96t-40.96-17.408l-779.264 0zM700.416 132.096l0-8.192q0-6.144 0.512-19.968t0.512-40.448l-646.144 0q-23.552 0-40.448 16.896t-16.896 41.472l0 76.8q0 23.552 16.896 40.448t40.448 16.896l517.12 0q-3.072-2.048-5.632-5.632t-4.608-5.632q-10.24-14.336-12.288-33.792t4.096-37.376 19.968-30.208 34.304-12.288l48.128 0zM1005.568 246.784l15.36-25.6q6.144-10.24 6.144-16.384t-7.68-8.704-25.088-2.56l-55.296 0q-22.528 0-33.792-11.264t-11.264-29.696l0-99.328q0-17.408-15.36-34.816t-36.864-17.408l-39.936 0q-15.36 0-27.136 11.776t-11.776 41.472q0 13.312 0.512 16.896t0.512 9.216 0.512 18.944 0.512 46.08q0 25.6-8.704 36.864t-31.232 11.264l-55.296 0q-23.552 0-29.696 9.728t10.24 30.208q15.36 20.48 34.304 47.616t38.912 56.32 38.912 56.832 36.352 49.152q7.168 8.192 18.432 12.8t23.552 5.12 22.528-2.56 15.36-10.24q12.288-21.504 28.16-47.616t33.28-52.736 34.304-52.736 31.232-48.64z"  horiz-adv-x="1030" />
      
      <glyph glyph-name="geren2" unicode="&#58897;" d="M936.896 110.208c9.28 14.336 17.664 29.056 25.472 44.224 1.856 3.648 3.52 7.36 5.312 11.072 5.952 12.288 11.392 24.832 16.32 37.632 1.984 5.184 3.904 10.368 5.76 15.616 4.096 11.904 7.68 23.936 10.944 36.16 1.536 5.888 3.2 11.712 4.544 17.6 2.816 12.608 4.992 25.472 6.848 38.464 0.832 5.568 1.92 11.008 2.56 16.64 2.048 18.56 3.328 37.312 3.328 56.32 0 278.976-227.008 505.984-505.984 505.984S6.016 662.976 6.016 384c0-19.072 1.28-37.824 3.328-56.32 0.64-5.632 1.728-11.072 2.56-16.704 1.92-12.928 4.032-25.728 6.848-38.336 1.344-6.016 3.008-11.84 4.544-17.664 3.264-12.224 6.848-24.32 10.944-36.16 1.792-5.248 3.712-10.432 5.696-15.616 4.928-12.8 10.432-25.344 16.32-37.632 1.792-3.712 3.456-7.424 5.312-11.072 7.744-15.168 16.192-29.888 25.408-44.096 0.32-0.576 0.64-1.152 1.024-1.664C178.432-30.016 334.592-121.984 512-121.984s333.632 92.032 423.936 230.656C936.256 109.184 936.576 109.696 936.896 110.208zM512 647.552c102.592 0 185.984-83.456 185.984-185.984 0-102.656-83.456-186.176-185.984-186.176S326.016 358.912 326.016 461.568C326.016 564.096 409.408 647.552 512 647.552zM204.416 67.2C257.216 187.904 377.152 268.736 512 268.736s254.784-80.896 307.648-201.472C739.968-10.112 631.552-57.984 512-57.984 392.448-57.984 284.032-10.112 204.416 67.2z"  horiz-adv-x="1024" />
      
      <glyph glyph-name="svg45-copy" unicode="&#58973;" d="M545.997 808.789c-14.95 7.031-32.597 4.71-45.295-5.837l-244.838-203.776-195.311 0.785c-11.23 0-22.050-4.437-30.003-12.39-8.021-7.953-12.561-18.773-12.561-30.106l-0.887-340.548c0-11.332 4.437-22.187 12.425-30.174 7.953-8.055 18.807-12.527 30.14-12.527h197.461l243.61-203.025c7.782-6.485 17.51-9.83 27.238-9.83 6.144 0 12.288 1.331 18.057 4.028 14.95 6.997 24.508 22.016 24.508 38.537v766.327c0 16.486-9.557 31.505-24.542 38.537v0zM711.066 595.934c-20.992 9.933-45.943 0.887-56.149-20.002-10.172-20.958-1.365-46.319 19.456-56.798 2.697-1.399 66.458-34.543 66.458-128.922 0-100.83-59.631-134.246-61.611-135.339-21.026-10.513-29.559-36.113-19.046-57.139 7.509-14.95 22.494-23.552 38.161-23.552 6.383 0 12.902 1.434 18.978 4.471 4.437 2.253 108.646 56.183 108.646 211.558 0 149.914-110.217 203.503-114.893 205.722v0zM843.606 720.964c-19.627 12.595-45.67 6.861-58.505-12.732-12.766-19.593-7.168-45.943 12.356-58.846 4.608-3.038 113.664-77.346 113.664-262.315 0-185.378-104.619-259.755-108.783-262.588-19.593-13.073-24.849-39.458-11.81-59.051 8.192-12.288 21.709-18.944 35.465-18.944 8.090 0 16.316 2.355 23.586 7.168 5.973 3.959 146.671 100.42 146.671 333.449 0 233.472-146.398 329.865-152.644 333.858v0zM843.606 720.964z"  horiz-adv-x="1024" />
      
      <glyph glyph-name="icon-test1" unicode="&#58982;" d="M512.525 895.992c-282.715 0-511.938-229.222-511.938-511.938 0-174.133 86.977-327.943 219.836-420.424 25.993 90.522 91.847 158.622 181.42 189.51 25.431 9.043 54.873 15.207 85.449 17.225-75.525-13.988-74.176-13.546-72.801-13.134 23.019 7.192 49.653 11.965 77.191 13.291l-64.135-9.67c20.553 5.412 44.345 8.921 68.819 9.741-54.525-6.471-53.129-6.208-51.742-5.933 17.859 3.734 38.56 6.086 59.734 6.508-31.098-1.642-14.266-0.185 2.866 0.030-37.332-2.493-35.915-2.293-34.482-2.131 11.658 1.438 25.237 2.301 39.002 2.381l-6.423-1.027c1.891-0.112 3.779-0.112 5.67 0h1.533c-133.117 0-241.029 107.912-241.029 241.029 0 1.267 0.075 2.516 0.096 3.775-1.312 152.377 141.516 244.179 241.171 237.375 102.271 6.966 250.007-89.397 241.383-248.353-0.254-0.158-0.529-0.279-0.783-0.433-4.045-129.576-110.287-233.392-240.841-233.392h25.98c4.724-0.354 9.395-0.821 14.036-1.354 1.437-0.162 2.858-0.362 4.283-0.542 20.532-2.642 38.797-6.529 56.494-11.741-38.938 9.083-35.814 8.5-32.706 7.883 1.412-0.279 2.837-0.546 4.237-0.842 25.305-5.389 47.543-12.833 68.586-22.44-55.717 19.465-55.43 19.399-55.15 19.324 27.557-7.172 51.659-16.891 74.11-29.239-60.212 25.344-58.771 24.869-57.317 24.415 2.754-0.867 5.491-1.758 8.207-2.691 89.606-30.85 155.498-98.921 181.536-189.427 132.742 92.497 219.636 246.237 219.636 420.286 0.008 282.72-229.21 511.938-511.929 511.938zM753.366 403.814c-70.675-43.161-216.244 31.629-240.604 134.709-24.326-103.45-170.646-178.445-240.912-134.271-0.165 3.346-0.258 7.267-0.258 11.21-0.021-1.494-0.096-2.744-0.096-4.006 0-133.117 107.912-241.029 241.029-241.029 130.555-0.004 236.796 103.812 240.841 233.388zM623.291 153.195c0.917-0.317 1.825-0.646 2.733-0.967-6.015-16.782-15.061-31.156-26.58-43.135 33.375-5.304 29.063-120.549 3.187-102.347l-90.106 63.301 2.954 2.083c-0.983-0.025-1.962-0.075-2.954-0.075-1.033 0-2.050 0.054-3.075 0.079l2.954-2.087-90.106-63.301c-25.809-18.223-30.167 97.301-12.878 123.452-8.409 13.712-14.226 29.909-16.334 47.251 6.889-24.958 7.818-24.624 8.752-24.303-89.572-30.888-155.427-98.992-181.42-189.51 82.848-57.672 183.519-91.514 292.102-91.514 108.67 0 209.42 33.896 292.302 91.651-26.030 90.501-91.926 158.572-181.532 189.423zM468.468 168.526c1.425 0.179 2.841 0.379 4.274 0.542-1.433-0.162-2.845-0.362-4.274-0.542zM454.078 166.406zM440.459 163.831c1.383 0.292 2.779 0.554 4.166 0.829-1.387-0.275-2.783-0.537-4.166-0.829zM427.294 160.798l0.254 0.058c-0.083-0.025-0.171-0.042-0.254-0.058zM580.617 164.668c1.412-0.279 2.837-0.546 4.237-0.842-1.4 0.296-2.825 0.562-4.237 0.842zM610.721 157.253c1.471-0.437 2.912-0.912 4.366-1.366-1.454 0.454-2.9 0.929-4.366 1.366zM597.444 160.923c0.279-0.071 0.567-0.137 0.846-0.212-0.279 0.075-0.562 0.142-0.846 0.212zM410.4 155.949c1.366 0.429 2.716 0.871 4.091 1.283-1.371-0.412-2.725-0.854-4.091-1.283zM552.545 169.068c1.437-0.162 2.858-0.362 4.283-0.542-1.425 0.179-2.845 0.379-4.283 0.542zM566.498 167.172zM409.425 130.198c3.437 5.199 7.724 6.887 12.878 3.262l45.111-31.65 42.037-29.68c1.025-0.025 2.041-0.079 3.075-0.079 0.992 0 1.971 0.050 2.954 0.075l42.041 29.684 45.111 31.65c5.179 3.645 9.491 1.921 12.944-3.354 8.426 13.713 14.251 29.915 16.358 47.264-6.822-24.821-7.73-24.492-8.642-24.175-24.961 8.861-53.861 14.902-83.871 16.88 74.21-13.735 72.768-13.26 71.297-12.822-22.795 7.111-49.172 11.832-76.442 13.145 63.735-9.612 63.448-9.546 63.168-9.475-20.632 5.417-44.517 8.93-69.084 9.753 55.094-6.554 53.669-6.287 52.257-6.008-18.015 3.764-38.858 6.092-60.184 6.437 34.966-2.4 33.545-2.2 32.112-2.037-11.675 1.44-25.274 2.304-39.058 2.384l-2.491-1.030c-1.891-0.112-3.779-0.112-5.67 0h-18.539c-14.797-1.149-28.141-2.977-41.229-5.52 25.756 4.004 24.34 3.804 22.915 3.624-3.245-0.412-6.478-0.858-9.682-1.354-22.598-3.576-42.606-8.709-61.835-15.493 46.286 12.705 44.887 12.443 43.508 12.151-25.331-5.382-47.598-12.833-68.665-22.454l55.5 19.417c-29.171-7.61-54.68-17.905-78.447-30.975 64.27 27 62.916 26.559 61.554 26.13-29.104-9.223-54.406-21.323-77.608-36.384 68.118 33.255 67.188 32.921 66.259 32.588 6.011-16.736 15.037-31.070 26.526-43.020zM602.631 133.46l-45.111-31.65-44.995-31.767 90.106-63.301c25.88-18.202 30.188 97.042 12.944 123.36-3.45 5.279-7.762 7.003-12.944 3.358zM422.303 133.46c-5.149 3.625-9.441 1.937-12.878-3.262-17.29-26.147-12.932-141.674 12.878-123.452l90.106 63.301-44.99 31.767-45.115 31.646zM512.762 538.523v114.078c-99.655 6.803-242.483-84.994-241.171-237.375 0.029-3.637 0.062-7.274 0.258-10.978 70.266-44.165 216.586 30.825 240.912 134.275zM512.762 538.523c24.36-103.079 169.929-177.87 240.604-134.709 0.254 0.154 0.529 0.275 0.783 0.433 8.62 158.956-139.116 255.319-241.383 248.353v-114.078z"  horiz-adv-x="1024" />
      
      <glyph glyph-name="icon-test" unicode="&#58983;" d="M512 896c-282.75 0-512-229.129-512-511.883 0-174.229 86.992-328.042 219.871-420.513 25.162 87.612 87.65 154.142 172.783 186.329-16.642-19.533 1.808-162.5 29.113-143.292l45.117 31.654 45 31.771-44.996 31.654-65.313 48.542c-1.328 1.031-2.954 1.742-4.728 1.991 1.611-0.362 1.436-0.329 1.261-0.287l-1.262-0.446c24.102 9.021 52.001 15.158 81.039 17.153-66.601-12.332-65.364-11.928-64.105-11.548 24.107 7.477 51.959 12.326 80.764 13.468-53.327-6.547-51.989-6.297-50.656-6.035 18.398 3.843 39.727 6.264 61.542 6.701-44.079-3.672-40.821-3.218-37.55-2.805 1.404 0.175 2.796 0.371 4.208 0.533 11.908 1.461 25.779 2.339 39.839 2.42l26.065-1.066c4.717-0.354 9.379-0.821 14.013-1.35 1.458-0.167 2.888-0.367 4.337-0.554 20.35-2.614 38.455-6.465 55.997-11.63-38.481 8.976-35.368 8.397-32.272 7.784 1.413-0.279 2.833-0.546 4.237-0.842 4.317-0.913 8.604-1.888 12.837-2.962l0.342-0.083c4.308-1.1 8.558-2.296 12.771-3.558 1.342-0.4 2.671-0.833 4.008-1.254 2.921-0.917 5.821-1.858 8.696-2.85 1.467-0.508 2.917-1.021 4.367-1.546-0.538 0.196-1.083 0.383-1.625 0.575-0.087-0.013-0.179-0.050-0.267-0.071-1.112-0.237-2.304-0.788-3.587-1.746l-64.842-48.542-45.117-31.654 90.117-63.425c27.483-19.333 45.712 125.696 28.442 143.675 85.638-32.029 148.512-98.717 173.788-186.65 132.821 92.479 219.771 246.262 219.771 420.446-0.004 282.767-229.254 511.896-512.004 511.896zM512 170.458c-130.433 0-236.6 103.608-240.858 233.008-0.146 0.092-0.292 0.167-0.438 0.258-4.946 92.438 42.85 163.65 103.758 205.725 1.129 0.788 2.246 1.6 3.387 2.367 1.15 0.771 2.321 1.483 3.479 2.229 2.163 1.396 4.321 2.8 6.529 4.129 2.167 1.308 4.358 2.529 6.546 3.762 0.967 0.542 1.908 1.121 2.883 1.65 34.688 19.008 71.842 29.037 105.046 28.746 3.208 0.125 6.421 0.246 9.658 0.246 3.1 0 6.175-0.117 9.25-0.233 26.55 0.183 55.6-6.192 83.896-18.438 41.727-17.809 76.264-45.615 101.666-80.5 15.418-5.85 50.513-69.871 46.247-149.683l-0.2-0.117c-4.175-129.462-110.375-233.15-240.85-233.15zM394.408 621.942c0.962 0.546 1.917 1.117 2.883 1.65-0.971-0.533-1.913-1.112-2.883-1.65zM521.25 652.346c-3.196 0.151-6.944 0.237-10.712 0.238-1.776-0.005-4.988-0.121-8.197-0.25 3.137-0.029 6.246-0.133 9.304-0.346 3.117 0.229 6.754 0.36 10.421 0.361zM381.333 614.046c2.167 1.4 4.333 2.804 6.529 4.129-2.208-1.329-4.367-2.729-6.529-4.129zM374.462 609.45c1.133 0.783 2.25 1.604 3.387 2.367-1.142-0.771-2.254-1.579-3.387-2.367zM605.142 633.908c43.53-19.218 79.583-48.513 106.329-85.051-69.923 70.497-109.645 90.956-153.628 99.461zM472.25 509.179c-46.313-81.296-124.788-153.329-201.108-105.712 4.254-129.4 110.425-233.008 240.858-233.008 130.475 0 236.675 103.688 240.858 233.15-63.746-39.783-230.979 17.846-280.608 105.571zM597.138 160.792v0zM625.429 152.008c0.087 0.021 0.183 0.058 0.267 0.071 0.542-0.192 1.087-0.379 1.625-0.575-26.313 9.847-56.793 16.659-88.502 19.073 84.981-17.819 85.818-18.128 86.66-18.423-0.021-0.046-0.029-0.096-0.050-0.146zM565.921 167.096zM580.063 164.596c1.413-0.279 2.833-0.546 4.237-0.842-1.404 0.296-2.825 0.563-4.237 0.842zM630.442 150.321c17.271-17.979-0.958-163.008-28.442-143.675l-90.117 63.425-45-31.771-45.117-31.654c-27.308-19.208-45.754 123.758-29.113 143.292-85.133-32.188-147.621-98.712-172.783-186.329 82.854-57.663 183.537-91.487 292.129-91.487 108.638 0 209.354 33.854 292.229 91.554-25.279 87.929-88.154 154.621-173.788 186.646zM401.079 153.021c-1.421-0.487-2.833-0.987-4.242-1.496l1.262 0.446c0.175-0.042 0.35-0.079 0.529-0.138l-0.096 0.288c0.85 0.3 1.692 0.604 2.546 0.9zM512 72.079c-1.038 0-2.058 0.054-3.087 0.079l2.967-2.087 2.967 2.083c-0.946-0.025-1.892-0.075-2.846-0.075zM610.25 157.154c1.342-0.4 2.671-0.833 4.008-1.254-1.337 0.421-2.667 0.854-4.008 1.254zM453.483 166.337zM439.887 163.771c1.321 0.279 2.658 0.529 3.992 0.792-1.329-0.263-2.667-0.513-3.992-0.792zM552 168.996c1.454-0.167 2.888-0.371 4.337-0.554-1.45 0.188-2.883 0.388-4.337 0.554zM410.025 155.954c1.25 0.392 2.492 0.796 3.746 1.175-1.258-0.379-2.496-0.788-3.746-1.175zM467.875 168.458c1.404 0.175 2.796 0.371 4.208 0.533-1.413-0.163-2.804-0.358-4.208-0.533zM514.85 72.15l42.15 29.571 64.842 48.542c1.288 0.954 2.479 1.508 3.587 1.746l0.054 0.146c-0.842 0.296-1.679 0.604-2.525 0.896-25.824 9.172-55.722 15.424-86.769 17.468 76.736-14.197 75.407-13.764 74.065-13.364-23.060 7.212-49.742 12-77.331 13.332l64.218-9.69c-20.527 5.404-44.288 8.908-68.73 9.728 54.489-6.469 53.068-6.203 51.655-5.923-18.349 3.818-39.621 6.222-61.376 6.656 33.104-1.848 16.669-0.422-0.059-0.212 36.26-2.415 34.827-2.21 33.372-2.044-11.843 1.454-25.638 2.327-39.621 2.408l-26.241-1.058c-15.099-1.178-28.705-3.043-42.052-5.634 26.589 4.117 25.193 3.922 23.789 3.747-3.275-0.417-6.529-0.867-9.762-1.367-22.096-3.489-41.667-8.513-60.473-15.16 44.914 12.368 43.577 12.118 42.252 11.839-29.345-6.288-55.273-15.565-79.478-27.762 52.103 20.741 50.862 20.337 49.616 19.945-3.008-0.942-5.992-1.908-8.946-2.933-0.854-0.292-1.696-0.6-2.546-0.9l0.096-0.288c0.925-0.292 1.9-0.796 2.938-1.567l65.313-48.542 42.029-29.567c1.029-0.025 2.050-0.079 3.087-0.079 0.95-0.004 1.896 0.046 2.846 0.067zM472.25 509.179c49.629-87.725 216.862-145.354 280.608-105.571l0.2 0.117c4.267 79.813-30.825 143.833-79.771 186.917-33.604 29.678-75.347 50.904-121.456 59.944 25.019-4.432-4.031 1.947-30.581 1.76-3.237-0.021-6.442-0.137-9.604-0.358 8.287-29.517-8.313-88.246-39.396-142.808zM472.25 509.179c31.083 54.563 47.683 113.288 39.396 142.808-3.065 0.221-6.643 0.348-10.25 0.349-32.259 0.288-69.413-9.741-104.1-28.749-0.967-0.529-1.921-1.104-2.883-1.65-2.188-1.233-4.379-2.454-6.546-3.762-2.196-1.325-4.363-2.729-6.529-4.129-1.158-0.746-2.329-1.463-3.479-2.229-1.142-0.763-2.258-1.583-3.387-2.367-60.917-42.075-108.712-113.288-103.767-205.725 0.146-0.092 0.292-0.167 0.438-0.258 76.321-47.617 154.796 24.417 201.108 105.712z"  horiz-adv-x="1024" />
      
      <glyph glyph-name="sousuo" unicode="&#58970;" d="M695.556 174.476l-4.543-4.443c-41.108-35.736-89.276-62.763-142.213-79.4C509.219 78.267 468.427 72 427.765 72c-39.116 0-78.064 5.651-115.969 17.104-13.038 3.972-20.396 17.719-16.41 30.682 3.986 13 17.807 20.311 30.827 16.339 67.968-20.443 139.755-19.995 207.704 1.398 69.496 21.823 129.641 64.125 173.655 122.15 56.457 74.346 80.392 166.131 67.503 258.346-12.871 92.4-61.04 174.076-135.769 230.274-74.692 56.197-166.893 80.015-259.56 67.202-92.798-12.833-174.866-60.786-231.323-135.15-46.64-61.383-71.172-134.517-70.874-211.492 0.298-74.495 24.997-148.263 69.496-207.5 8.12-11.005 5.83-26.43-5.067-34.525-11.045-8.076-26.542-5.8-34.682 5.055-50.758 67.65-78.995 151.769-79.293 236.671-0.317 87.794 27.604 171.167 80.988 241.41 64.429 84.902 158.157 139.57 264.012 154.23 105.854 14.493 211.094-12.683 296.217-76.807 85.31-64.125 140.22-157.44 154.954-262.803 14.566-105.345-12.74-210.093-77.17-294.846-4.389-5.898-8.984-11.589-13.693-17.123l256.317-268.457c10.199-10.677 9.751-27.7-0.951-37.837-10.74-10.136-27.838-9.688-38.018 0.97L695.556 174.477zM406.33 202c-0.764 0-1.547 0-2.312 0.15-50.18 4.568-98.088 22.899-138.464 53.276-36.853 27.637-66.007 64.28-84.443 106.107-5.517 12.364 0.15 27.021 12.75 32.373 12.434 5.483 27.179-0.168 32.548-12.68 15.043-34.033 38.828-63.963 68.915-86.564 33.013-24.877 72.177-39.832 113.15-43.506 13.682-1.23 23.655-13.128 22.424-26.722C429.817 211.622 419.08 202 406.33 202z"  horiz-adv-x="1024" />
      
      <glyph glyph-name="tixing" unicode="&#58968;" d="M934.4 176.8v0.8c-0.8 0.8-0.8 1.6-1.6 1.6-3.2 4.8-6.4 9.6-10.4 14.4-57.6 80-108.8 176.8-108.8 302.4 0 151.2-91.2 276.8-228 309.6v4.8c0 39.2-32 72-72 72-39.2 0-72-32-72-72v-4.8c-136.8-32.8-228-158.4-228-309.6 0-134.4-58.4-235.2-120.8-317.6L92 176c-7.2-12.8-11.2-27.2-11.2-40.8v-2.4c3.2-96.8 195.2-136 432.8-136 239.2 0 432.8 39.2 432.8 137.6 0 15.2-4 28.8-12 42.4zM375.2-32c32-48.8 87.2-80.8 150.4-80.8 64 0 120 33.6 151.2 83.2-50.4-4.8-105.6-7.2-163.2-7.2-48.8-0.8-95.2 0.8-138.4 4.8z m0 0"  horiz-adv-x="1024" />
      
      <glyph glyph-name="shouye" unicode="&#58969;" d="M1004.8 441.6L550.4 824s-1.6 0-1.6 1.6l-1.6 1.6-1.6 1.6C524.8 841.6 496 840 476.8 824l-456-382.4c-24-19.2-25.6-54.4-4.8-76.8s57.6-25.6 80-4.8l38.4 33.6V72c0-75.2 64-137.6 142.4-137.6h84.8c32 0 57.6 24 57.6 54.4V248c0 16 12.8 27.2 28.8 27.2h128c16 0 28.8-12.8 28.8-27.2v-252.8c0-3.2 0-8 1.6-11.2l1.6-6.4c4.8-25.6 28.8-43.2 56-43.2h83.2c78.4 0 142.4 62.4 142.4 137.6V392l38.4-33.6c11.2-9.6 24-12.8 36.8-12.8 16 0 32 6.4 43.2 19.2 22.4 20.8 20.8 56-3.2 76.8z"  horiz-adv-x="1024" />
      
      <glyph glyph-name="guanbi" unicode="&#58908;" d="M143.616 848.896l830.08-830.08c26.24-26.24 26.24-69.888 0-96.128-26.24-26.24-69.888-26.24-96.128 0L47.488 752.768c-17.536 26.24-17.536 69.888 0 96.128 26.24 26.24 69.888 26.24 96.128 0z m0 0M982.528 752.768L152.32-77.312c-26.24-26.24-69.888-26.24-96.128 0-26.24 26.24-26.24 69.888 0 96.128L886.4 848.896c26.24 26.24 69.888 26.24 96.128 0 17.408-26.24 17.408-69.888 0-96.128z m0 0"  horiz-adv-x="1024" />
      
      <glyph glyph-name="tongji" unicode="&#58950;" d="M816 128V499.2c0 25.6-22.4 48-48 48h-48c-25.6 0-48-22.4-48-48V128h-48V640c0 25.6-22.4 48-48 48h-48c-25.6 0-48-22.4-48-48v-512h-48v278.4c0 25.6-22.4 48-48 48h-48c-25.6 0-48-22.4-48-48V128H256V688C256 713.6 233.6 736 208 736S160 713.6 160 688v-604.8c0-25.6 22.4-48 48-48h604.8c25.6 0 48 22.4 48 48s-19.2 44.8-44.8 44.8z"  horiz-adv-x="1024" />
      
      <glyph glyph-name="xuanzhong" unicode="&#58996;" d="M512 247.296A136.704 136.704 0 1 1 375.296 384 136.704 136.704 0 0 1 512 247.296zM512-25.6a409.6 409.6 0 1 0 409.6 409.6 409.6 409.6 0 0 0-409.6-409.6z"  horiz-adv-x="1024" />
      
      <glyph glyph-name="yaoqingfanyong" unicode="&#58891;" d="M1044.873846 608.256h-87.118769V896H145.250462v-287.586462H58.289231a57.816615 57.816615 0 0 1-58.052923-57.580307v-107.677539L0 443.076923h0.157538v-496.324923c0-31.665231 25.993846-57.501538 58.052924-57.501538h986.505846a57.737846 57.737846 0 0 1 58.052923 57.501538v604.16a57.501538 57.501538 0 0 1-57.895385 57.422769z m-174.158769 201.412923v-404.873846L551.542154 213.543385 232.369231 404.795077v404.873846h638.345846zM87.197538 522.082462h58.052924v-65.142154l-58.052924 34.658461v30.483693z m424.251077 70.262153V712.231385a39.936 39.936 0 0 0 79.872 0v-119.88677H711.286154a39.936 39.936 0 0 0 0-79.950769H591.320615V392.664615a39.936 39.936 0 0 0-79.872 0V512.393846H391.483077a39.936 39.936 0 0 0 0 79.950769h119.886769z m504.359385-100.667077l-58.052923-34.73723v65.142154h58.052923v-30.404924z"  horiz-adv-x="1102" />
      
      <glyph glyph-name="shezhi" unicode="&#59062;" d="M949.952 460.672c0.416-2.08 9.344-50.368 9.344-88.416 0-38.816-9.216-87.904-9.344-88.384-5.248-27.84-22.144-45.92-43.776-45.92H902.4c-60.416 0-109.472-49.568-109.472-110.56 0-19.648 9.44-42.016 9.536-42.208 10.816-24.544 2.464-54.624-20.8-70.912l-114.208-63.584a62.016 62.016 0 0 0-68.832 15.104c-12.416 13.696-55.424 52.928-89.024 52.928-30.976 0-72.896-34.944-88.384-51.936-11.04-12.128-28.128-19.36-45.504-19.36-8.32 0-16.192 1.6-24.832 5.44l-110.08 62.304a58.336 58.336 0 0 0-19.264 70.112c0.096 0.192 9.536 22.368 9.536 42.112 0 60.896-49.056 110.56-109.44 110.56h-4.576c-20.864 0-37.76 17.984-43.008 45.92-0.416 2.08-9.344 50.56-9.344 88.384 0 37.952 8.96 86.4 9.344 88.416 5.248 27.904 22.048 45.888 43.68 45.888h3.776c60.416 0 109.472 49.6 109.472 110.56 0 19.968-9.44 42.016-9.536 42.24-10.816 24.512-2.464 54.72 20.864 71.008l116.32 64.256c7.168 3.104 14.912 4.576 23.04 4.576 17.408 0 34.368-7.04 45.504-18.976 12.224-12.896 54.432-49.856 87.04-49.856 32.256 0 74.272 36.16 86.4 48.864 11.136 11.616 28 18.56 45.184 18.56 8.352 0 16.32-1.568 24.96-5.344l112.224-63.168c21.856-15.392 30.208-45.504 19.392-70.144-0.096-0.192-9.536-22.336-9.536-42.112 0-60.896 49.152-110.56 109.44-110.56h4.576c20.96 0.096 37.856-17.888 43.104-45.792z m-279.328-100.512c0 88.192-71.104 159.904-158.4 159.904-87.36 0-158.464-71.68-158.464-159.904 0-88.224 71.04-159.936 158.432-159.936 87.424 0 158.432 71.712 158.432 159.936z"  horiz-adv-x="1024" />
      
      <glyph glyph-name="shijian" unicode="&#58896;" d="M509.9 831.6c-246.6 0-446.6-200-446.6-446.6 0-246.6 199.9-446.6 446.6-446.6S956.5 138.3 956.5 385c0 246.6-199.9 446.6-446.6 446.6zM627 339.7H502.4c-25 0-45.3 20.3-45.3 45.3V621.7c0 25 20.3 45.3 45.3 45.3s45.3-20.3 45.3-45.3v-191.5H627c25 0 45.3-20.3 45.3-45.3S652 339.7 627 339.7z"  horiz-adv-x="1024" />
      
      <glyph glyph-name="renyuanguanli" unicode="&#58979;" d="M792.746667 239.786667c42.24 31.573333 67.413333 79.786667 67.413333 132.693333 3.413333 59.306667-28.16 113.92-78.08 145.493333-49.92 29.866667-113.92 29.866667-163.84 0s-81.493333-85.76-78.08-145.493333c0-53.333333 24.746667-101.546667 67.413333-132.693333-84.053333-42.24-140.373333-126.293333-146.773333-221.866667 0-15.786667 7.68-26.453333 21.76-26.453333h433.92c14.08 0 21.76 12.373333 21.76 26.453333-5.973333 95.573333-60.586667 178.346667-145.493333 221.866667zM392.533333 17.92v4.266667c5.973333 89.173333 46.933333 171.946667 112.213334 229.546666-21.333333 34.986667-32.853333 75.52-33.28 118.186667-3.84 82.773333 39.68 163.413333 111.36 206.08 34.986667 20.906667 75.52 32 116.906666 32s81.92-11.093333 116.906667-32l1.28-0.853333c19.626667-12.373333 37.12-27.306667 52.053333-43.946667V725.333333c0 28.16-23.04 51.2-51.2 51.2H136.533333c-28.16 0-51.2-23.04-51.2-51.2v-682.666666c0-28.16 23.04-51.2 51.2-51.2h259.413334c-2.133333 8.533333-3.413333 17.066667-3.413334 26.453333zM293.12 640h170.666667c18.773333 0 34.133333-15.36 34.133333-34.133333s-15.36-34.133333-34.133333-34.133334h-170.666667c-18.773333 0-34.133333 15.36-34.133333 34.133334s15.36 34.133333 34.133333 34.133333z m-102.4 0c18.773333 0 34.133333-15.36 34.133333-34.133333s-15.36-34.133333-34.133333-34.133334-34.133333 15.36-34.133333 34.133334 15.36 34.133333 34.133333 34.133333z m0-204.8h221.866667c18.773333 0 34.133333-15.36 34.133333-34.133333s-15.36-34.133333-34.133333-34.133334h-221.866667c-18.773333 0-34.133333 15.36-34.133333 34.133334s15.36 34.133333 34.133333 34.133333z m153.6-204.8h-153.6c-18.773333 0-34.133333 15.36-34.133333 34.133333s15.36 34.133333 34.133333 34.133334h153.6c18.773333 0 34.133333-15.36 34.133333-34.133334s-15.36-34.133333-34.133333-34.133333z"  horiz-adv-x="1024" />
      
      <glyph glyph-name="dingdan" unicode="&#59167;" d="M225.536 328.832c-6.144-7.296-9.024-16.64-8.768-28.032 0.256-11.392 3.968-20.736 10.944-28.032 6.976-7.296 16.32-10.944 28.032-10.944h83.968c-2.944-8.768-4.672-17.216-5.248-25.344-0.576-8.192-0.576-16.64 0-25.344 0-33.856 3.968-65.792 11.84-95.808 7.872-30.08 18.816-57.92 32.832-83.584H204.992c-31.488 1.152-57.728 12.224-78.72 33.28s-32.064 47.232-33.28 78.72v543.36c1.152 31.488 12.224 57.856 33.28 79.168 20.992 21.312 47.232 32.256 78.72 32.832h487.36c31.488-0.576 57.856-11.52 79.168-32.832s32.256-47.68 32.832-79.168v-145.28c-16.896 8.192-35.712 14.016-56.448 17.472-20.736 3.52-40.96 4.928-60.8 4.352h-6.144c-2.944 5.824-6.848 10.176-11.84 13.12-4.992 2.944-10.368 4.352-16.192 4.352H244.352c-8.768 0-16.512-2.944-23.168-8.768-6.72-5.824-10.048-14.272-10.048-25.344s3.328-19.712 10.048-25.792c6.72-6.144 14.464-10.624 23.168-13.568h258.112c-33.856-19.264-63.168-42.88-87.936-70.848-24.832-28.032-44.16-60.352-58.176-97.152H255.744c-14.016 0.128-24.064-3.52-30.208-10.816z m627.392 51.2c44.608-42.56 67.84-96.832 69.568-162.752-1.728-66.496-24.96-121.92-69.568-166.272s-99.904-67.392-165.824-69.12c-66.496 1.728-121.92 25.344-166.272 70.848s-67.392 100.352-69.12 164.48c1.728 62.976 24.768 116.544 69.12 160.576 44.352 44.032 99.776 66.944 166.272 68.672 65.92-1.728 121.216-23.872 165.824-66.432z m-19.648-231.04c6.4 6.4 9.6 14.016 9.6 22.72s-3.2 16.448-9.6 23.168c-6.4 6.72-14.016 10.368-22.72 10.944h-118.144V329.28c0 8.768-3.392 16.32-10.048 22.72-6.72 6.4-14.464 9.6-23.168 9.6s-16.512-3.2-23.168-9.6c-6.72-6.4-10.368-14.016-10.944-22.72v-157.504c0.576-8.768 4.224-16.32 10.944-22.72 6.72-6.4 14.464-9.92 23.168-10.496h151.36c8.704 0.512 16.256 4.032 22.72 10.432z"  horiz-adv-x="1024" />
      
      <glyph glyph-name="xiaoshouchuku" unicode="&#58880;" d="M746.37568 643.232v-353.23264h-110.37568V643.232h-110.39232L691.2 864l165.58336-220.768zM1132.768 14.4c0-60.928-49.408-110.4-110.39104-110.4H360.01664c-60.98432 0-110.38464 49.472-110.38464 110.4V235.17568l110.38464 496.544v0.21632H470.4v-55.22432h-65.952l-94.55232-441.536h215.712l110.38464-110.40768h110.39104l110.39232 110.40768h215.70432l-94.53568 441.568h-65.96736v55.18464h110.39104v-0.21632l110.38464-496.544V14.4h0.01536z"  horiz-adv-x="1382" />
      
      <glyph glyph-name="xiala" unicode="&#58881;" d="M946.3808 492.4416L584.3968 130.4576a102.4 102.4 0 0 0-144.896 0L77.5168 492.4416a102.4 102.4 0 1 0 144.7936 144.7936L512 347.648l289.5872 289.5872a102.4 102.4 0 0 0 144.7936-144.7936z"  horiz-adv-x="1024" />
      
      <glyph glyph-name="jurassic_warning" unicode="&#59030;" d="M952.6 25.200000000000045L545.5 773.7c-18.4 34.1-48.6 35.5-67 1.4L71.4 24.399999999999977C53-9.600000000000023 70-32 109.1-32h805.8c39.1 0 56.1 23.1 37.7 57.2zM512 49.60000000000002c-25.9 0-46.9 20.8-46.9 46.3s20.9 46.3 46.9 46.3c25.9 0 46.9-20.8 46.9-46.3s-21-46.3-46.9-46.3z m39.4 199c-5.3-31.7-23-57.7-39.4-57.7-16.3 0-34 26-39.4 57.7l-39.8 241.1c-5.3 31.6 17 63.2 49.5 63.2h59.3c32.6 0 54.9-31.5 49.5-63.2l-39.7-241.1z"  horiz-adv-x="1024" />
      
      <glyph glyph-name="fuzhi" unicode="&#58942;" d="M912 878.72H340.48a96 96 0 0 1-96-96v-83.2h64v83.2a32 32 0 0 0 32 32h571.52a32 32 0 0 0 32-32v-650.88a31.36 31.36 0 0 0-32-31.36h-164.48v-64h164.48a96 96 0 0 1 96 95.36V782.72a96 96 0 0 1-96 96zM683.52-110.72H112a96 96 0 0 0-96 96V636.16a96 96 0 0 0 96 95.36h571.52a96 96 0 0 0 96-95.36v-650.88a96 96 0 0 0-96-96zM112 667.52a31.36 31.36 0 0 1-32-31.36v-650.88a32 32 0 0 1 32-32h571.52a32 32 0 0 1 32 32V636.16a32 32 0 0 1-32 31.36zM603.52 472.32H192a32 32 0 0 0-32 32 32 32 0 0 0 32 32h411.52a32 32 0 0 0 32-32 32 32 0 0 0-32-32zM603.52 278.4H192a32 32 0 0 0 0 64h411.52a32 32 0 0 0 0-64zM603.52 85.12H192a32 32 0 0 0-32 32 32 32 0 0 0 32 32h411.52a32 32 0 0 0 32-32 32 32 0 0 0-32-32z"  horiz-adv-x="1024" />
      
      <glyph glyph-name="Bidjiaoyi" unicode="&#59166;" d="M383.9 709.7l324.8-77.8c22.1-5.3 35.7-27.5 30.4-49.5s-27.4-35.6-49.5-30.4l-324.8 77.8c-22.1 5.2-35.7 27.4-30.4 49.5s27.4 35.7 49.5 30.4zM655.6 398.5l-22-92c-14.1-58.9-73.2-95.1-132-81L395.1 251c-58.8 14.1-95.1 73.2-81 132l67.6 282.2c14.1 58.8 73.2 95.1 132 81l106.5-25.5c58.8-14.1 95.1-73.2 81-132l-17-70.7c4.5-0.1 9.1-0.6 13.7-1.7L958.1 454c-22.3 252-170.7 378-445 378-298.7 0-448-149.3-448-448s149.3-448 448-448c278 0 426.6 129.4 445.8 388.2l-290.4 69.6c-4.5 1.1-8.8 2.7-12.9 4.7z m95-306.9c0-3.6-1.6-44.6-1.6-44.6l-489.1 0.1s-0.2 0.7-0.2 2.5c0 13.6 0.2 27.3-0.1 42.2-0.8 53.3 62.1 93.8 108.4 93.8h273.6c59.8 0.1 109-34.2 109-94z"  horiz-adv-x="1024" />
      
      <glyph glyph-name="dui" unicode="&#59157;" d="M377.8 63.7c-12.5 0-25 4.8-34.5 14.3L76.5 344.8c-19.1 19.1-19.1 50 0 69.1 19.1 19.1 50 19.1 69.1 0L412.4 147c19.1-19.1 19.1-50 0-69.1-9.6-9.5-22.1-14.2-34.6-14.2zM377.8 63.7c-12.5 0-25 4.8-34.5 14.3-19.1 19.1-19.1 50 0 69.1L877 680.7c19.1 19.1 50 19.1 69.1 0s19.1-50 0-69.1L412.4 78c-9.6-9.6-22.1-14.3-34.6-14.3z"  horiz-adv-x="1024" />
      
      <glyph glyph-name="xiadanchenggong" unicode="&#59027;" d="M512 896a512 512 0 1 0 0-1024A512 512 0 0 0 512 896z m0-213.312a298.688 298.688 0 1 1 0-597.376 298.688 298.688 0 0 1 0 597.376zM442.752 369.92c2.752 0 5.184-2.112 5.376-4.928a64.128 64.128 0 0 1 127.744 0 5.376 5.376 0 0 0 5.376 4.928h32.064c3.072 0 5.504-2.56 5.376-5.568A106.88 106.88 0 0 0 512 263.296a106.88 106.88 0 0 0-106.688 101.12 5.312 5.312 0 0 0 5.376 5.568h32z m-48.064 106.688a32 32 0 1 0 0-64 32 32 0 0 0 0 64z m234.624 0a32 32 0 1 0 0-64 32 32 0 0 0 0 64z"  horiz-adv-x="1024" />
      
      <glyph glyph-name="zanwujilu" unicode="&#59082;" d="M134.418833 293.868587h18.860681a10.143696 10.143696 0 0 0 9.435745-9.435745 9.05745 9.05745 0 0 0-9.435745-9.430341h-18.860681v-18.866085a10.138292 10.138292 0 0 0-9.430341-9.435745c-3.145248 0-4.717872 1.572624-6.290496 1.572624a11.92168 11.92168 0 0 0-3.145249 6.290497v18.860681h-17.293461a10.1491 10.1491 0 0 0-9.435745 9.435745 9.062855 9.062855 0 0 0 9.435745 9.435745h18.866086V311.162048a10.143696 10.143696 0 0 0 9.435744 9.435745 9.062855 9.062855 0 0 0 9.435745-9.435745v-17.293461zM1322.944393 366.187681v18.866085a11.889255 11.889255 0 0 1-3.145248 6.285093c-1.572624 1.572624-3.145248 1.572624-6.285092 1.572624a10.143696 10.143696 0 0 1-9.435745-9.435745v-18.860681h-18.866086a8.171161 8.171161 0 0 1-6.290496-3.145249 11.889255 11.889255 0 0 1-3.145249-6.285092 10.143696 10.143696 0 0 1 9.435745-9.435745h18.866086v-15.720837a10.138292 10.138292 0 0 1 9.435745-9.435745 10.138292 10.138292 0 0 1 9.43034 9.435745v18.860681h18.866086a10.143696 10.143696 0 0 1 9.435745 9.435745 10.143696 10.143696 0 0 1-9.435745 9.435745h-18.866086zM228.738452 855.122473h26.723802a14.088767 14.088767 0 0 0 14.153618-14.148214 14.088767 14.088767 0 0 0-14.153618-14.148213h-26.723802v-25.156582a14.094171 14.094171 0 0 0-14.050937-14.148213h-0.113488a11.197516 11.197516 0 0 0-9.435745 4.717872 13.288944 13.288944 0 0 0-3.145249 9.430341v26.729206h-26.702185a11.208325 11.208325 0 0 0-9.435745 4.712469 13.59158 13.59158 0 0 0-4.712468 9.435745 14.083363 14.083363 0 0 0 14.050937 14.148213h26.848099v25.156582a14.088767 14.088767 0 0 0 14.126597 14.148213 14.088767 14.088767 0 0 0 14.148213-14.148213v-26.729206zM18.077071 87.919674a17.444779 17.444779 0 0 0 17.293462 17.293461h108.473236a17.450183 17.450183 0 0 0 17.293462-17.293461 17.450183 17.450183 0 0 0-17.293462-17.293461h-108.473236a17.860903 17.860903 0 0 0-12.575589 4.712468 17.866307 17.866307 0 0 0-4.717873 12.580993zM54.236618 661.754553a54.825677 54.825677 0 0 1-47.162511-26.729206 53.998833 53.998833 0 0 1 0-53.453009 56.879275 56.879275 0 0 1 47.162511-26.745419 54.042067 54.042067 0 0 1 53.453009 53.453009 53.009863 53.009863 0 0 1-53.453009 53.474625z m23.583958-66.028597a25.940192 25.940192 0 0 0-23.583958-14.153618 25.237645 25.237645 0 0 0-26.723802 28.301831 27.561454 27.561454 0 0 0 26.723802 26.723802 29.209737 29.209737 0 0 0 23.583958-14.148213 27.021033 27.021033 0 0 0-0.005404-26.723802zM1170.453893 768.655165a54.836485 54.836485 0 0 1-47.167916-26.723802 53.998833 53.998833 0 0 1 0-53.453008 53.436796 53.436796 0 0 1 47.167916-26.723802 53.009863 53.009863 0 0 1 53.447604 53.453008 53.009863 53.009863 0 0 1-53.447604 53.447604z m23.578554-66.028597a25.940192 25.940192 0 0 0-23.578554-14.148213 25.994234 25.994234 0 0 0-26.729206 28.30183 27.561454 27.561454 0 0 0 26.729206 26.723803 29.231354 29.231354 0 0 0 23.578554-14.148214 27.021033 27.021033 0 0 0 0-26.729206zM894.68263-18.76477H284.85033V606.312797a61.694424 61.694424 0 0 0 61.607957 61.607956h486.573153a61.699828 61.699828 0 0 0 61.607956-61.607956z m-574.618489 35.219215h539.399274V606.312797a26.442783 26.442783 0 0 1-26.410358 26.410358h-486.567749a26.437379 26.437379 0 0 1-26.410358-26.410358zM375.311346 562.306341m17.606906 0l154.8035 0q17.606905 0 17.606906-17.606905l0 0q0-17.606905-17.606906-17.606905l-154.8035 0q-17.606905 0-17.606906 17.606905l0 0q0 17.606905 17.606906 17.606905ZM375.311346 392.246765m17.606906 0l191.444022 0q17.606905 0 17.606905-17.606905l0 0q0-17.606905-17.606905-17.606905l-191.444022 0q-17.606905 0-17.606906 17.606905l0 0q0 17.606905 17.606906 17.606905ZM375.311346 477.276553m17.606906 0l275.85773 0q17.606905 0 17.606905-17.606905l0 0q0-17.606905-17.606905-17.606905l-275.85773 0q-17.606905 0-17.606906 17.606905l0 0q0 17.606905 17.606906 17.606905ZM194.978373 16.449041m17.606906 0l804.054083 0q17.606905 0 17.606906-17.606906l0 0q0-17.606905-17.606906-17.606905l-804.054083 0q-17.606905 0-17.606906 17.606905l0 0q0 17.606905 17.606906 17.606906ZM521.224927 61.530933a127.420385 127.420385 0 0 0-97.8918 45.54125A127.804084 127.804084 0 0 0 439.064772 286.918777 126.961028 126.961028 0 0 0 532.249508 316.301449a126.831327 126.831327 0 0 0 86.661859-45.114318 127.79868 127.79868 0 0 0-15.731646-179.846594 127.096133 127.096133 0 0 0-81.954794-29.809604z m-0.178339 220.021467a92.001215 92.001215 0 0 1-59.343594-21.616827 92.541635 92.541635 0 0 1-11.397472-130.241381 92.557848 92.557848 0 0 1 130.241382-11.392068 92.54704 92.54704 0 0 1 11.392067 130.241381 92.293042 92.293042 0 0 1-70.892383 33.008895zM599.153587 116.686266L666.003624 37.017451l-20.23335-16.974613-66.850037 79.668815zM648.077788 92.619587m22.635001-26.975344l101.864453-121.397328q22.635001-26.975344-4.340342-49.610345l-0.00414-0.003474q-26.975344-22.635001-49.610346 4.340343l-101.864453 121.397328q-22.635001 26.975344 4.340343 49.610345l0.00414 0.003474q26.975344 22.635001 49.610345-4.340343ZM998.281272 755.06899h-486.573153a61.694424 61.694424 0 0 1-61.607956-61.607956v-43.109357h35.21381v43.109357a26.437379 26.437379 0 0 0 26.410358 26.410358h486.556941a26.442783 26.442783 0 0 0 26.410358-26.410358v-589.863756h-147.62131v-35.213811h182.840525V693.439417a61.694424 61.694424 0 0 1-61.629573 61.629573zM1181.867578 103.575661h-304.797258v-35.213811h304.797258a17.606905 17.606905 0 0 1 17.606905 17.606905 17.606905 17.606905 0 0 1-17.606905 17.606906z"  horiz-adv-x="1351" />
      
      <glyph glyph-name="a-youjiantouzhixiangyoujiantou" unicode="&#58892;" d="M881 334H81c-27.6 0-50 22.4-50 50s22.4 50 50 50h800c27.6 0 50-22.4 50-50s-22.4-50-50-50zM907.6 355.3L695.5 567.4c-19.5 19.5-19.5 51.2 0 70.7s51.2 19.5 70.7 0L978.4 426c19.5-19.5 19.5-51.2 0-70.7-19.6-19.6-51.2-19.6-70.8 0zM695.5 200.6l212.1 212.1c19.5 19.5 51.2 19.5 70.7 0s19.5-51.2 0-70.7L766.2 129.9c-19.5-19.5-51.2-19.5-70.7 0s-19.5 51.2 0 70.7z"  horiz-adv-x="1024" />
      
      <glyph glyph-name="telegram" unicode="&#60453;" d="M512 880C238 880 16 658 16 384s222-496 496-496 496 222 496 496S786 880 512 880z m243.6-339.8l-81.4-383.6c-6-27.2-22.2-33.8-44.8-21l-124 91.4-59.8-57.6c-6.6-6.6-12.2-12.2-25-12.2l8.8 126.2 229.8 207.6c10 8.8-2.2 13.8-15.4 5l-284-178.8-122.4 38.2c-26.6 8.4-27.2 26.6 5.6 39.4l478.2 184.4c22.2 8 41.6-5.4 34.4-39z"  horiz-adv-x="1024" />
      
      <glyph glyph-name="zichanguanli" unicode="&#58886;" d="M385.113043 682.295652s-48.973913 84.591304-111.304347 120.208696c-22.26087 24.486957-8.904348 71.234783 26.713043 62.330435s80.13913-28.93913 111.304348 11.130434 62.330435 8.904348 73.46087-11.130434c13.356522-20.034783 33.391304-11.130435 48.973913 11.130434 15.582609 22.26087 60.104348 22.26087 73.460869 0 13.356522-22.26087 80.13913-26.713043 97.947826-11.130434 17.808696 13.356522 48.973913-31.165217 24.486957-48.973913s-104.626087-109.078261-111.304348-133.565218H385.113043z m-11.130434-46.747826S233.73913 475.269565 178.086957 417.391304s-113.530435-271.582609 0-387.33913S360.626087-128 496.417391-128s325.008696 53.426087 391.791305 218.156522-24.486957 291.617391-73.46087 351.721739-169.182609 155.826087-184.765217 193.669565H373.982609z m244.869565-291.617391s-6.678261 82.365217-111.304348 84.591304c-104.626087 2.226087-120.208696-80.13913-73.460869-109.078261 46.747826-28.93913 242.643478-20.034783 269.356521-169.182608 11.130435-48.973913-82.365217-146.921739-146.921739-144.695653v-73.460869h-86.817391V5.565217s-135.791304-6.678261-160.278261 169.182609h73.46087s17.808696-113.530435 135.791304-97.947826c115.756522 15.582609 111.304348 60.104348 97.947826 97.947826-13.356522 35.617391-169.182609 51.2-209.252174 73.46087s-109.078261 80.13913-62.330435 182.53913c22.26087 42.295652 84.591304 55.652174 122.434783 60.104348v60.104348h89.043478v-60.104348s126.886957-2.226087 135.791304-144.695652h-73.460869z"  horiz-adv-x="1024" />
      
      <glyph glyph-name="zichan" unicode="&#60091;" d="M770.048 710.144h-512c-18.773333 0-34.133333 15.36-34.133333 34.133333s15.36 34.133333 34.133333 34.133334h512a34.133333 34.133333 0 1 0 0-68.266667zM923.648 641.536h-819.2c-37.717333 0-68.266667-30.549333-68.266667-68.266667v-597.333333c0-37.717333 30.549333-68.266667 68.266667-68.266667h819.2c37.717333 0 68.266667 30.549333 68.266667 68.266667v597.333333c0 37.717333-30.549333 68.266667-68.266667 68.266667zM634.197333 356.352c17.578667 0 31.744-14.165333 31.744-31.744s-14.165333-31.744-31.744-31.744h-88.234666v-56.661333h88.234666c17.578667 0 31.744-14.165333 31.744-31.744s-14.165333-31.744-31.744-31.744h-88.234666v-88.405334c0-17.578667-14.165333-31.744-31.744-31.744s-31.744 14.165333-31.744 31.744v88.405334h-88.576c-17.578667 0-31.744 14.165333-31.744 31.744s14.165333 31.744 31.744 31.744h88.576v56.661333h-88.576c-17.578667 0-31.744 14.165333-31.744 31.744s14.165333 31.744 31.744 31.744h63.658666l-86.016 86.016c-12.458667 12.288-12.458667 32.426667 0 44.885333s32.426667 12.458667 44.885334 0l97.621333-97.621333 97.621333 97.621333c12.458667 12.458667 32.426667 12.458667 44.885334 0s12.458667-32.426667 0-44.885333l-86.016-86.016h63.658666z"  horiz-adv-x="1024" />
      
      <glyph glyph-name="lujing-19" unicode="&#58883;" d="M694.857143 582.217143C665.014857 766.537143 594.358857 896 512.219429 896 430.08 896 359.350857 766.537143 329.435429 582.217143H694.857143zM366.006857 874.569143A512.585143 512.585143 0 0 1 39.862857 582.217143h223.085714c17.92 117.467429 52.589714 222.573714 102.985143 292.352z m618.496-292.352A513.097143 513.097143 0 0 1 658.139429 874.569143c50.322286-69.778286 85.065143-174.811429 103.204571-292.352h223.085714zM247.881143 384c0 44.324571 2.486857 88.868571 6.802286 132.096H17.773714A514.998857 514.998857 0 0 1 0 384c0-45.787429 6.582857-89.819429 17.773714-132.096h236.617143a1417.069714 1417.069714 0 0 0-6.582857 132.096z m65.974857 0c0-45.860571 2.56-89.819429 6.875429-132.096h382.537142c4.388571 42.422857 6.875429 86.308571 6.875429 132.096 0 45.714286-2.486857 89.819429-6.875429 132.096h-382.537142c-4.388571-42.276571-6.875429-86.308571-6.875429-132.096z m692.516571 132.096h-236.763428c4.388571-43.373714 6.875429-87.771429 6.875428-132.096 0-44.324571-2.56-88.868571-6.875428-132.096h236.617143c11.337143 42.422857 17.773714 86.308571 17.773714 132.096 0 45.714286-6.436571 89.819429-17.627429 132.096zM658.285714-106.422857a513.755429 513.755429 0 0 1 326.290286 292.352h-223.158857c-18.212571-117.613714-52.736-222.72-103.131429-292.352zM39.862857 185.782857a513.097143 513.097143 0 0 1 326.363429-292.352c-50.468571 69.778286-85.138286 174.811429-103.277715 292.352H39.862857z m289.499429 0C359.350857 1.462857 430.08-128 512.146286-128 594.285714-128 664.868571 1.462857 694.857143 185.782857H329.362286z"  horiz-adv-x="1024" />
      
      <glyph glyph-name="leijishougouliang" unicode="&#58988;" d="M167.905882 750.923294a58.006588 58.006588 0 0 0 81.769412 0l298.767059-298.706823c22.497882-22.528 22.497882-59.331765 0-81.769412-22.347294-22.588235-59.181176-22.588235-81.769412 0l-298.767059 298.556235a58.398118 58.398118 0 0 0 0 81.92z m786.672942-294.851765H589.643294a93.906824 93.906824 0 0 0-15.962353-110.832941 93.515294 93.515294 0 0 0-132.126117 0l-110.772706 110.832941H69.391059A66.921412 66.921412 0 0 1 2.770824 389.421176c0-36.623059 30.057412-66.650353 66.620235-66.650352h15.99247L239.164235-128h554.676706l153.750588 450.770824h6.987295a66.861176 66.861176 0 0 1 66.650352 66.650352 66.861176 66.861176 0 0 1-66.650352 66.650353zM244.946824 280.756706h537.901176a34.183529 34.183529 0 0 0 0-68.427294H244.916706a34.304 34.304 0 0 0-34.18353 34.213647 34.304 34.304 0 0 0 34.18353 34.213647z m75.173647-271.329882H711.077647a34.273882 34.273882 0 0 0 0-68.547765H320.150588a34.334118 34.334118 0 0 0-34.213647 34.243765c0 18.793412 15.450353 34.334118 34.213647 34.334117zM282.503529 142.968471h469.534118c18.793412 0 34.183529-15.510588 34.183529-34.454589 0-18.823529-15.390118-34.093176-34.213647-34.093176H282.533647a34.032941 34.032941 0 0 0-34.032941 34.093176c0 18.944 15.209412 34.424471 34.032941 34.424471zM552.598588 896v-195.132235h-97.551059l195.072-195.102118 195.222589 195.102118h-97.551059V896h-195.192471z"  horiz-adv-x="1024" />
      
    </font>
</defs>
</svg>
